<?xml version="1.0" standalone="no"?>
<!DOCTYPE svg PUBLIC "-//W3C//DTD SVG 1.1//EN" "http://www.w3.org/Graphics/SVG/1.1/DTD/svg11.dtd">
<svg xmlns="http://www.w3.org/2000/svg">
<metadata>Copyright (C) 2024 by original authors @ fontello.com</metadata>
<defs>
<font id="fontello" horiz-adv-x="1000" >
<font-face font-family="fontello" font-weight="400" font-stretch="normal" units-per-em="1000" ascent="850" descent="-150" />
<missing-glyph horiz-adv-x="1000" />
<glyph glyph-name="like" unicode="&#xe801;" d="M957 170c20 26 30 54 29 83-1 32-16 57-27 72 13 34 19 87-27 129-33 30-89 44-168 40-55-3-101-13-103-13h0c-10-2-21-4-33-7 0 13 2 47 27 122 29 89 27 157-6 202-35 48-90 52-106 52-16 0-30-6-41-18-23-27-20-77-17-100-28-74-105-256-171-306-1-1-2-2-3-3-19-20-32-42-41-61-12 6-26 10-41 10h-128c-48 0-87-39-87-87v-340c0-48 39-87 87-87h128c18 0 36 6 50 16l49-6c7-1 141-18 279-15 25-2 48-3 70-3 37 0 70 3 97 9 64 13 108 41 130 80 17 31 17 61 14 81 42 37 49 79 47 108 0 17-4 32-8 42z m-856-255c-17 0-31 13-31 30v340c0 17 14 31 31 31h128c16 0 30-14 30-31v-340c0-17-14-30-30-30h-128v0z m802 280c-8-10-10-24-3-34 0-1 8-15 9-35 2-28-11-52-39-73-10-7-14-20-10-32 0 0 9-28-5-54-14-25-46-43-93-53-38-8-89-10-152-5-1 0-2 0-3 0-135-3-271 15-272 15h0l-21 3c1 6 2 12 2 18v340c0 9-2 18-4 26 3 14 14 45 38 72 94 74 186 325 190 336 2 5 2 10 1 14-3 24-2 52 3 61 11 0 41-3 59-28 21-30 21-82-2-152-36-107-38-163-11-187 14-13 33-13 46-9 13 3 25 6 36 8 1 0 2 0 3 0 64 14 179 23 219-13 34-31 10-72 7-77-7-11-5-27 5-36 1 0 22-21 24-49 0-18-8-38-27-56z" horiz-adv-x="1000" />

<glyph glyph-name="dislike" unicode="&#xe802;" d="M957 530c20-26 30-54 29-83-1-32-16-57-27-72 13-34 19-87-27-129-33-30-89-44-168-40-55 3-101 13-103 13h0c-10 2-21 5-33 7 0-13 2-47 27-121 29-90 27-158-6-203-35-48-90-52-106-52-16 0-30 6-41 18-23 27-20 77-17 100-28 74-105 256-171 306-1 1-2 2-3 3-19 20-32 42-41 62-12-7-26-11-41-11h-128c-48 0-87 39-87 87v340c0 48 39 87 87 87h128c18 0 36-6 50-16l49 6c7 1 141 18 279 15 25 2 48 3 70 3 37 0 70-3 97-9 64-13 108-41 130-80 17-31 17-61 14-81 42-37 49-79 47-108 0-17-4-31-8-42z m-856 255c-17 0-31-13-31-30v-340c0-17 14-31 31-31h128c16 0 30 14 30 31v340c0 17-14 30-30 30h-128v0z m802-280c-8 10-10 24-3 35 0 0 8 14 9 34 2 28-11 52-39 73-10 7-14 20-10 32 0 0 9 28-5 54-14 25-46 43-93 53-38 8-89 10-152 5-1 0-2 0-3 0-135 3-271-15-272-15h0l-21-3c1-6 2-12 2-18v-340c0-9-2-18-4-26 3-14 14-45 38-72 94-74 186-325 190-336 2-5 2-10 1-14-3-24-2-52 3-61 11 0 41 3 59 28 21 30 21 83-2 152-36 107-38 163-11 188 14 12 33 12 46 8 13-3 25-6 36-8 1 0 2 0 3 0 64-14 179-23 219 14 34 30 10 71 7 76-7 12-5 27 5 36 1 0 22 21 24 49 0 19-8 38-27 56z" horiz-adv-x="1000" />

<glyph glyph-name="question" unicode="&#xe803;" d="M996-56l-69 200c33 67 51 141 51 216 0 129-50 251-140 343-91 93-212 145-341 147-68 1-133-11-195-37-59-25-113-60-159-106-46-46-81-99-106-159-26-62-38-127-37-195 2-129 54-250 147-341 92-90 213-140 342-140 0 0 1 0 1 0 75 0 149 18 216 51l200-69c7-3 15-4 23-4 18 0 36 7 50 21 20 19 26 47 17 73z m-59-31c-2-2-6-5-12-3l-212 73c-3 1-6 1-9 1-5 0-10-1-14-3-61-33-131-50-200-50-234 0-427 190-431 423-1 118 43 228 126 311 83 83 194 128 311 126 234-4 423-197 423-431 0-69-17-138-50-200-4-7-4-15-2-23l73-212c2-6-1-10-3-12z m-453 229c-15 0-30-14-29-30 0-16 13-30 29-30 16 0 31 14 30 30-1 16-13 30-30 30z m0 459c-81 0-147-66-147-148 0-16 13-29 29-29 17 0 30 13 30 29 0 49 40 88 88 88 49 0 88-39 88-88 0-48-39-88-88-88-16 0-29-13-29-30v-121c0-16 13-29 29-29 17 0 30 13 30 29v95c67 14 118 73 118 144 0 82-66 148-148 148z" horiz-adv-x="1000" />

<glyph glyph-name="list-bulleted" unicode="&#xe804;" d="M1000 350c0-276-224-500-500-500-276 0-500 224-500 500 0 276 224 500 500 500 53 0 103-8 151-23l-77-171c-23 6-46 8-71 8-175 0-317-142-317-317 0-176 142-318 317-318 176 0 318 142 318 318 0 69-22 134-61 186l141 115c62-83 99-186 99-298z" horiz-adv-x="1000" />

<glyph glyph-name="info" unicode="&#xe805;" d="M500-56c-225 0-406 181-406 406 0 225 181 406 406 406 225 0 406-181 406-406 0-225-181-406-406-406z m0 750c-191 0-344-153-344-344 0-191 153-344 344-344 191 0 344 153 344 344 0 191-153 344-344 344z m0-563c-19 0-31 13-31 32v250c0 18 12 31 31 31 19 0 31-13 31-31v-250c0-19-12-32-31-32z m0 344c25 0 47 22 47 47 0 25-22 47-47 47-25 0-47-22-47-47 0-25 22-47 47-47z" horiz-adv-x="1000" />

<glyph glyph-name="right" unicode="&#xe806;" d="M471 671c16 16 42 16 59 0l291-291c16-17 16-43 0-59l-291-292c-17-16-43-16-59 0-17 16-17 43 0 59l220 220h-483c-23 0-41 19-41 42 0 23 18 42 41 42h483l-220 220c-17 17-17 43 0 59z" horiz-adv-x="1000" />

<glyph glyph-name="add" unicode="&#xe807;" d="M500 683c23 0 42-18 42-41v-250h250c23 0 41-19 41-42 0-23-18-42-41-42h-250v-250c0-23-19-41-42-41-23 0-42 18-42 41v250h-250c-23 0-41 19-41 42 0 23 18 42 41 42h250v250c0 23 19 41 42 41z" horiz-adv-x="1000" />

<glyph glyph-name="angle-left" unicode="&#xe808;" d="M0 353l495-495 52 52-442 443 442 444-52 53-495-497z" horiz-adv-x="553" />

<glyph glyph-name="film" unicode="&#xe809;" d="M94 631c0 35 28 63 62 63h688c34 0 62-28 62-63v-562c0-35-28-63-62-63h-688c-34 0-62 28-62 63v562z m750 0h-688v-562h688v562z m-344 63c17 0 31-14 31-31v-625c0-18-14-32-31-32-17 0-31 14-31 32v625c0 17 14 31 31 31z m-406-156c0 17 14 31 31 31h750c17 0 31-14 31-31 0-18-14-32-31-32h-750c-17 0-31 14-31 32z m0-375c0 17 14 31 31 31h750c17 0 31-14 31-31 0-18-14-32-31-32h-750c-17 0-31 14-31 32z m219 531c17 0 31-14 31-31v-125c0-18-14-32-31-32-18 0-32 14-32 32v125c0 17 14 31 32 31z m375 0c17 0 31-14 31-31v-125c0-18-14-32-31-32-18 0-32 14-32 32v125c0 17 14 31 32 31z m-375-500c17 0 31-14 31-31v-125c0-18-14-32-31-32-18 0-32 14-32 32v125c0 17 14 31 32 31z m375 0c17 0 31-14 31-31v-125c0-18-14-32-31-32-18 0-32 14-32 32v125c0 17 14 31 32 31z" horiz-adv-x="1000" />

<glyph glyph-name="mail" unicode="&#xe80a;" d="M94 631c0 18 14 32 31 32h750c17 0 31-14 31-32v-531c0-17-6-32-18-44-12-12-28-18-44-18h-688c-16 0-32 6-44 18-12 12-18 27-18 44v531z m62-31v-500h688v500h-688z m-54 52c12 13 31 14 44 2l354-324 354 324c13 12 32 11 44-2 12-12 11-32-2-44l-375-343c-12-11-30-11-42 0l-375 343c-13 12-14 32-2 44z" horiz-adv-x="1000" />

<glyph glyph-name="marker" unicode="&#xe80b;" d="M500 538c-52 0-94-42-94-94 0-52 42-94 94-94 52 0 94 42 94 94 0 52-42 94-94 94z m-156-94c0 86 70 156 156 156 86 0 156-70 156-156 0-86-70-156-156-156-86 0-156 70-156 156z m156 281c-75 0-146-30-199-82-53-53-82-125-82-199 0-130 72-247 148-335 38-44 76-79 104-103 12-9 21-17 29-23 8 6 17 14 29 23 28 24 66 59 104 103 76 88 148 205 148 335 0 74-29 146-82 199-53 52-124 82-199 82z m0-781c-18-26-18-26-18-26l0 0 0 0 0 0-1 1c-1 0-2 1-3 2-2 2-6 4-10 8-9 7-22 17-37 29-30 26-70 63-111 110-80 92-164 224-164 376 0 91 37 178 101 243 64 64 152 101 243 101 91 0 179-37 243-101 65-65 101-152 101-243 0-152-84-284-164-376-40-47-81-84-111-110-15-12-28-22-37-29-4-4-8-6-10-8-1-1-2-2-3-2l-1-1 0 0 0 0 0 0c0 0 0 0-18 26z m0 0l18-26c-11-7-25-7-36 0l18 26z" horiz-adv-x="1000" />

<glyph glyph-name="map" unicode="&#xe80c;" d="M405 701c5-16-6-33-22-38l-227-56v-498l211 53c17 4 34-6 38-23 5-17-6-34-22-38l-250-63c-10-2-20 0-27 6-8 6-12 15-12 25v562c0 15 10 27 23 31l250 62c17 4 34-6 38-23z m-46 19c9 6 20 7 30 2l250-125c11-6 17-16 17-28v-563c0-11-5-21-15-26-9-6-20-7-30-2l-250 125c-11 6-17 16-17 28v563c0 11 5 21 15 26z m47-77v-492l188-94v492l-188 94z m488 13c8-6 12-15 12-25v-562c0-15-9-27-23-31l-250-62c-17-4-34 6-38 23-4 16 6 33 22 38l227 56v498l-211-53c-17-4-34 6-38 23-4 17 6 34 22 38l250 63c10 2 20 0 27-6z" horiz-adv-x="1000" />

<glyph glyph-name="phone" unicode="&#xe80d;" d="M615 665c97-26 174-103 200-200 4-14 16-23 30-23 3 0 5 1 8 1 17 5 27 22 22 39-32 118-125 211-243 243-17 5-34-5-39-22-4-17 6-34 22-38z m-32-121c54-15 97-57 111-111 4-14 16-23 30-23 3 0 5 0 8 1 17 4 27 21 22 38-20 76-79 135-155 155-17 5-34-5-38-22-5-17 5-34 22-38z m285-312l-183 78c-19 9-42 7-59-5l-98-66c-60 29-109 78-138 138l65 99c12 18 13 40 5 59l-78 183c-11 26-38 41-66 38-109-14-191-108-191-218 0-310 253-563 563-563 110 0 204 82 218 191 3 28-12 55-38 66l0 0z m-180-194c-276 0-500 224-500 501 0 78 58 145 136 155l79-184-66-99c-11-18-13-42-3-61l0 0c35-73 94-132 167-167 20-10 44-8 62 4l97 66 184-79c-10-78-77-136-156-136v0z" horiz-adv-x="1000" />

<glyph glyph-name="video" unicode="&#xe80e;" d="M50 629c11 11 27 18 44 18h500c41 0 81-17 110-46 30-29 46-69 46-110v-375c0-17-7-33-18-45-12-11-28-18-44-18h-500c-42 0-82 17-111 46-29 29-46 69-46 110v375c0 17 7 33 19 45z m44-45v-375c0-24 10-48 27-66 18-17 42-27 67-27h500v375c0 25-10 48-28 66-17 18-41 27-66 27l-500 0z m859-19c10-6 16-16 16-27v-375c0-12-6-22-16-27-9-6-21-6-31-1l-219 125c-15 9-20 28-11 43 8 15 27 20 42 12l172-99v268l-172-99c-15-8-34-3-42 12-9 15-4 34 11 43l219 125c10 5 22 5 31 0z" horiz-adv-x="1000" />

<glyph glyph-name="link" unicode="&#xe80f;" d="M294 116q14 14 34 14t36-14q32-34 0-70l-42-40q-56-56-132-56-78 0-134 56t-56 132q0 78 56 134l148 148q70 68 144 77t128-43q16-16 16-36t-16-36q-36-32-70 0-50 48-132-34l-148-146q-26-26-26-64t26-62q26-26 63-26t63 26z m450 574q56-56 56-132 0-78-56-134l-158-158q-74-72-150-72-62 0-112 50-14 14-14 34t14 36q14 14 35 14t35-14q50-48 122 24l158 156q28 28 28 64 0 38-28 62-24 26-56 31t-60-21l-50-50q-16-14-36-14t-34 14q-34 34 0 70l50 50q54 54 127 51t129-61z" horiz-adv-x="800" />

<glyph glyph-name="angle-right" unicode="&#xe810;" d="M552 351l-499 499-53-53 446-446-446-448 53-53z" horiz-adv-x="552" />

<glyph glyph-name="calendar" unicode="&#xe811;" d="M883 772h-47v78h-78v-78h-516v78h-78v-78h-47c-64 0-117-53-117-117v-688c0-64 53-117 117-117h766c64 0 117 53 117 117v688c0 64-53 117-117 117z m39-805c0-21-18-39-39-39h-766c-21 0-39 18-39 39v516h844v-516z m0 594h-844v94c0 21 18 39 39 39h47v-78h78v78h516v-78h78v78h47c21 0 39-18 39-39v-94z m-695-160h-79v-78h79v78z m156 0h-78v-78h78v78z m156 0h-78v-78h78v78z m156 0h-78v-78h78v78z m157 0h-79v-78h79v78z m-625-156h-79v-79h79v79z m156 0h-78v-79h78v79z m156 0h-78v-79h78v79z m156 0h-78v-79h78v79z m-468-157h-79v-78h79v78z m156 0h-78v-78h78v78z m156 0h-78v-78h78v78z m156 0h-78v-78h78v78z m157 157h-79v-79h79v79z" horiz-adv-x="1000" />

<glyph glyph-name="blockquote" unicode="&#xe812;" d="M1338 207c-12 126-74 215-163 245-75 24-92 113-39 194 32 44 77 83 145 119 4 2 8 4 11 6 0 0 0 0 2 0 42 22 49 28 46 47-4 21-19 28-65 21-5 0-11-2-15-2 0 0-3 0-3 0-10-2-21-4-31-6-303-68-503-279-526-538-2-28-2-54-2-81 0-11 2-24 2-34 2-22 6-43 11-62 42-175 185-283 351-260 172 22 295 179 276 351z m-287-280c-134-20-257 76-276 255-24 223 95 421 314 523-4-6-8-10-12-17-37-53-51-115-41-172 11-60 53-111 117-132 51-17 100-74 113-183 13-132-81-255-215-274z m-428 357c-25 85-76 145-144 168-43 15-60 36-70 81-17 81 46 164 170 232 0 0 2 0 2 2 4 2 6 4 11 6 2 0 4 3 4 3 42 17 51 29 42 49-8 19-19 21-63 12 0 0-3 0-3 0 0 0-2 0-2 0-4 0-8-2-13-2-344-64-557-293-557-602 0-245 160-411 362-379 142 21 249 126 272 258 4 19 6 38 6 57 0 11 0 24-2 36-2 28-6 56-15 79z m-272-357c-76-11-145 12-191 63-49 52-85 135-85 241 0 208 112 383 314 472 0 0 0 0-2-2-42-53-66-119-51-187 7-30 17-60 39-85 23-26 51-41 78-51 49-17 100-77 109-185 17-130-75-245-211-266z" horiz-adv-x="1340" />

<glyph glyph-name="check" unicode="&#xe813;" d="M365-6c-9-9-22-14-35-14-13 0-25 5-34 14l-275 275c-28 28-28 75 0 103l35 34c28 29 74 29 103 0l171-171 464 463c28 29 74 29 103 0l34-34c29-29 29-75 0-103l-566-567z" horiz-adv-x="952" />

<glyph glyph-name="checkbox" unicode="&#xe814;" d="M878 644c24-24 24-64 0-88l-459-458c-24-25-64-25-88 0l-208 208c-25 24-25 64 0 88 24 25 63 25 88 0l164-164 414 414c25 25 64 25 89 0z" horiz-adv-x="1000" />

<glyph glyph-name="email-form" unicode="&#xe815;" d="M167 642c-23 0-42-19-42-42v-500c0-23 19-42 42-42h666c23 0 42 19 42 42v500c0 23-19 42-42 42h-666z m-125-42c0 69 56 125 125 125h666c69 0 125-56 125-125v-500c0-69-56-125-125-125h-666c-69 0-125 56-125 125v500z m7 24c13 19 39 23 58 10l393-275 393 275c19 13 45 9 58-10 13-19 8-45-10-58l-417-292c-14-10-33-10-48 0l-417 292c-18 13-23 39-10 58z" horiz-adv-x="1000" />

<glyph glyph-name="user-form" unicode="&#xe816;" d="M186 206c39 39 92 61 147 61h334c55 0 108-22 147-61 39-39 61-92 61-148v-83c0-23-19-42-42-42-23 0-41 19-41 42v83c0 34-13 65-37 89-23 23-55 36-88 36h-334c-33 0-65-13-88-36-23-24-37-55-37-89v-83c0-23-18-42-41-42-23 0-42 19-42 42v83c0 56 22 109 61 148z m314 477c-69 0-125-56-125-125 0-69 56-125 125-125 69 0 125 56 125 125 0 69-56 125-125 125z m-208-125c0 115 93 209 208 209 115 0 208-94 208-209 0-115-93-208-208-208-115 0-208 93-208 208z" horiz-adv-x="1000" />

<glyph glyph-name="phone-form" unicode="&#xe817;" d="M833-104c-4 0-8 0-12 0-133 16-267 62-379 133-104 67-196 159-263 263-75 112-121 246-133 379 0 17 0 33 4 50 8 21 17 33 29 46 13 12 25 25 42 29 17 8 33 12 50 12h125c29 0 58-8 83-29 25-21 38-46 42-79 4-37 12-75 25-108 8-21 8-46 4-71-4-25-17-46-33-63l-29-29c50-75 112-141 191-191l29 29c17 16 38 29 63 33 25 4 46 4 71-4 33-13 71-21 108-25 29-4 58-21 79-42 21-25 29-54 29-83v-125c0-17-4-34-12-50s-17-29-29-42c-13-12-29-21-46-25-8-8-25-8-38-8z m-537 829c0 0 0 0 0 0h-125c-4 0-13 0-17-4-4 0-8-4-12-8-4-5-9-9-9-17 0-4-4-13 0-17 9-121 50-237 117-341 63-96 142-180 238-238 104-67 220-108 341-121 4 0 13 0 17 0 4 0 12 4 17 8 4 5 8 9 8 13 4 4 4 13 4 17v125c0 0 0 0 0 0 0 8-4 21-8 29-9 8-17 12-25 12-42 5-84 17-125 34-9 4-17 4-25 0-9 0-17-4-21-13l-54-54c-13-12-34-17-50-8-113 62-204 154-267 266-8 25-4 46 8 59l55 54c4 4 8 12 12 21 0 8 0 16 0 25-17 41-25 83-33 125 0 8-9 21-13 25-12 4-21 8-33 8z" horiz-adv-x="1000" />

<glyph glyph-name="star" unicode="&#xe818;" d="M500 767l129-261 288-42-209-203 50-287-258 136-257-136 49 287-209 203 288 42 129 261z" horiz-adv-x="1000" />

<glyph glyph-name="warning" unicode="&#xe819;" d="M500 444c17 0 31-14 31-31v-125c0-18-14-32-31-32-17 0-31 14-31 32v125c0 17 14 31 31 31z m-47 300c14 8 31 12 47 12 16 0 33-4 47-12 14-8 26-20 34-34l-27-16 27 16 344-594c8-14 12-31 12-47 0-17-4-33-12-47-8-14-20-26-34-34-15-9-31-13-47-13h-688c-16 0-32 4-47 13-14 8-26 20-34 34-8 14-12 30-12 47 0 16 4 33 12 47l344 594 27-16-27 16c8 14 20 26 34 34z m47-50c-6 0-11-2-16-4-4-3-8-7-11-12l-344-594-27 16 27-16c-2-4-4-10-4-15 0-6 1-11 4-16 3-5 7-8 12-11 4-3 10-4 15-4h688c5 0 10 1 15 4 5 3 9 6 12 11 2 5 4 10 4 16 0 5-2 11-4 15l27 16-27-16-344 594c-3 5-7 9-11 12-5 2-11 4-16 4z m0-594c26 0 47 21 47 47 0 26-21 47-47 47-26 0-47-21-47-47 0-26 21-47 47-47z" horiz-adv-x="1000" />

<glyph glyph-name="round-check" unicode="&#xe81a;" d="M644 674c-70 31-148 39-222 22-74-17-142-58-191-116-50-58-79-130-84-206-5-77 14-152 56-216 42-65 103-113 174-140 72-26 150-29 223-7 74 21 138 66 184 127 45 61 70 136 70 212v38c0 35 28 63 63 63 34 0 62-28 62-63v-38c0-103-33-204-95-287-62-82-149-143-248-172-99-30-205-26-302 10-97 36-180 102-236 188-56 87-83 190-76 293 7 103 47 201 114 280 67 78 158 133 258 156 101 22 207 12 301-30 32-14 46-51 32-83-14-31-51-45-83-31z m317 54c24-25 24-64 0-89l-417-417c-11-12-27-18-44-18-17 0-32 6-44 18l-125 125c-25 25-25 64 0 88 24 25 64 25 88 0l81-80 372 373c25 24 64 24 89 0z" horiz-adv-x="1000" />

<glyph glyph-name="calendar-2" unicode="&#xe81b;" d="M100 600c0 60 49 108 108 108h584c60 0 108-48 108-108v-583c0-60-48-109-108-109h-584c-59 0-108 49-108 109v583z m108 58c-32 0-58-26-58-58v-583c0-33 26-59 58-59h584c32 0 58 26 58 59v583c0 32-26 58-58 58h-584z m459 134c13 0 25-11 25-25v-167c0-14-12-25-25-25-14 0-25 11-25 25v167c0 14 11 25 25 25z m-334 0c14 0 25-11 25-25v-167c0-14-11-25-25-25-13 0-25 11-25 25v167c0 14 12 25 25 25z m-233-359c0 14 11 25 25 25h750c14 0 25-11 25-25 0-13-11-25-25-25h-750c-14 0-25 12-25 25z" horiz-adv-x="1000" />

<glyph glyph-name="arrowe" unicode="&#xe81c;" d="M1875 392h-1625v-84h1625v84z m-1875-42l250-144 0 288-250-144z" horiz-adv-x="1875" />

<glyph glyph-name="home" unicode="&#xe81d;" d="M500 587l-357-294c0 0 0-1 0-2 0 0 0-1 0-1v-298c0-11 4-20 12-28 7-8 17-12 27-12h239v238h158v-238h239c10 0 20 4 28 12 7 8 11 17 11 28v298c0 1 0 2 0 3l-357 294z m493-227l-136 113v253c0 6-2 11-5 15-4 3-9 5-15 5h-119c-5 0-10-2-14-5-4-4-5-9-5-15v-121l-152 127c-13 11-29 16-47 16-18 0-34-5-47-16l-446-372c-4-3-6-7-7-13 0-6 1-10 4-15l39-46c3-3 8-6 13-6 5-1 10 1 15 4l429 358 429-358c4-3 8-4 13-4h2c6 0 10 3 13 6l39 46c3 5 4 9 4 15 0 6-3 10-7 13z" horiz-adv-x="1000" />

<glyph glyph-name="polygon" unicode="&#xe81e;" d="M733-88c-48-83-168-83-216 0l-433 751c-48 83 12 187 108 187l866 0c96 0 156-104 108-187l-433-751z" horiz-adv-x="1250" />

<glyph glyph-name="copy" unicode="&#xe823;" d="M613 660h-443c-41 0-75-34-75-76v-635c0-41 34-75 75-75h443c42 0 75 34 75 75v635c0 42-34 76-75 76z m22-711c0-12-10-22-22-22h-443c-12 0-23 10-23 22v635c0 13 11 23 23 23h443c12 0 22-10 22-23v-635z m147 877h-442c-42 0-76-34-76-75 0-15 12-26 27-26 14 0 26 11 26 26 0 12 10 23 23 23h442c13 0 23-11 23-23v-635c0-13-10-23-23-23-14 0-26-12-26-26 0-15 12-27 26-27 42 0 76 34 76 76v635c0 41-34 75-76 75z" horiz-adv-x="952" />

<glyph glyph-name="round-check-2" unicode="&#xe824;" d="M653 693c-74 33-157 41-236 23-78-18-149-61-202-122-53-62-84-138-89-219-5-81 15-161 59-229 44-68 109-119 185-148 76-28 159-30 236-7 78 23 146 70 194 135 49 65 75 143 75 224v38c0 23 19 42 42 42 23 0 41-19 41-42v-38c0-99-32-195-91-274-59-79-142-137-237-165-95-28-196-25-289 9-92 35-172 98-225 181-54 83-80 181-73 279 6 99 44 193 109 268 64 75 151 128 247 149 96 22 197 12 288-28 21-9 30-34 21-55-10-21-34-31-55-21z m293 20c16-16 16-43 0-59l-416-417c-8-8-19-12-30-12-11 0-22 4-29 12l-125 125c-17 16-17 42 0 59 16 16 42 16 59 0l95-96 387 388c17 16 43 16 59 0z" horiz-adv-x="1000" />

<glyph glyph-name="quest" unicode="&#xe825;" d="M500 725c-207 0-375-168-375-375 0-207 168-375 375-375 207 0 375 168 375 375 0 207-168 375-375 375z m-458-375c0 253 205 458 458 458 253 0 458-205 458-458 0-253-205-458-458-458-253 0-458 205-458 458z m469 166c-20 3-40-1-57-11-16-10-29-25-36-44-8-21-31-33-53-25-22 7-33 31-26 53 14 37 39 68 73 88 34 20 74 27 113 21 39-7 74-27 99-57 26-30 39-68 39-108 0-63-47-106-81-128-18-12-36-21-49-27-6-3-12-5-16-7-2 0-4-1-5-1l-1-1-1 0 0 0 0 0c0 0 0 0-13 39l13-39c-22-7-46 4-53 26-7 22 5 46 26 53l0 0c0 0 0 0 0 0l1 0c1 0 2 1 3 1 3 1 7 3 12 5 11 5 24 12 37 20 29 19 44 40 44 59l0 0c0 20-7 39-20 54-12 15-30 25-49 29z m-53-374c0 23 19 41 42 41h0c23 0 42-18 42-41 0-23-19-42-42-42h0c-23 0-42 19-42 42z" horiz-adv-x="1000" />

<glyph glyph-name="doc" unicode="&#xe826;" d="M162 772c23 23 55 36 88 36h333c11 0 22-4 30-12l250-250c8-8 12-18 12-29v-500c0-34-13-65-37-89-23-23-55-36-88-36h-500c-33 0-65 13-88 36-24 24-37 55-37 89v666c0 34 13 65 37 89z m88-47c-11 0-22-4-29-12-8-8-13-19-13-30v-666c0-11 5-22 13-30 7-8 18-12 29-12h500c11 0 22 4 30 12 7 8 12 19 12 30v482l-226 226h-316z m333 83c23 0 42-18 42-41v-209h208c23 0 42-18 42-41 0-23-19-42-42-42h-250c-23 0-41 19-41 42v250c0 23 18 41 41 41z m-291-500c0 23 18 42 41 42h334c23 0 41-19 41-42 0-23-18-41-41-41h-334c-23 0-41 18-41 41z m0-166c0 23 18 41 41 41h334c23 0 41-18 41-41 0-23-18-42-41-42h-334c-23 0-41 19-41 42z m0 333c0 23 18 42 41 42h84c23 0 41-19 41-42 0-23-18-42-41-42h-84c-23 0-41 19-41 42z" horiz-adv-x="1000" />

<glyph glyph-name="angle-right-bold" unicode="&#xe827;" d="M137 824c-26 23-64 20-87-5-22-26-19-65 6-87l437-382-437-382c-25-23-28-61-6-87 23-25 61-28 87-5l489 428c13 12 21 28 21 46 0 18-8 34-21 46l-489 428z" horiz-adv-x="647" />

<glyph glyph-name="play" unicode="&#xe836;" d="M845 391c32-18 32-64 0-82l-482-279c-32-18-71 5-71 42l0 556c0 37 39 60 71 42l482-279z" horiz-adv-x="1000" />

<glyph glyph-name="search" unicode="&#xe83b;" d="M433 750c-183 0-333-150-333-333 0-184 150-334 333-334 80 0 154 29 211 76l199-199a33 33 0 1 1 47 47l-199 199c47 57 76 131 76 211 0 183-150 333-334 333z m0-67c148 0 267-119 267-266 0-148-119-267-267-267-147 0-266 119-266 267 0 147 119 266 266 266z" horiz-adv-x="1000" />

<glyph glyph-name="youtube" unicode="&#xe83c;" d="M738 470c-10 31-43 50-73 54-110 12-220 12-330 0-30-4-64-23-74-54-15-79-15-161 0-240 11-31 44-50 75-54 109-12 220-12 329 0 31 4 64 23 74 54 15 79 15 161-1 240z m-298-216v192l156-96c-52-32-103-64-156-96z" horiz-adv-x="1000" />

<glyph glyph-name="whatsapp" unicode="&#xe83d;" d="M676 526c-41 43-96 68-155 73-59 5-118-11-166-46-48-35-82-85-96-143-14-57-7-118 20-171l-26-127c-1-2-1-3 0-4 0-1 1-3 1-4 1-1 3-3 5-3 2-1 4-1 5-1l125 30c53-26 113-33 170-19 57 14 107 48 142 96 34 47 51 105 46 164-4 59-29 114-71 155h0z m-39-311c-28-29-65-48-106-54-40-7-81-1-117 17l-18 9-77-18v1l17 77-9 17c-19 36-25 78-19 118 7 41 26 78 55 107 36 37 86 57 137 57 52 0 101-20 137-57l1-1c36-36 56-86 56-137 0-51-21-100-57-136l0 0z m-6 56c-10-15-25-33-43-37-33-8-83 0-146 58l-1 0c-54 51-69 94-66 127 2 19 18 37 32 48 2 2 4 3 7 4 3 0 6 0 8 0 3-1 6-2 8-4 2-2 3-4 5-7l20-45c1-3 2-6 1-10 0-3-1-6-3-8l-11-14c-2-2-3-6-3-9-1-3 0-7 2-10 10-14 21-27 35-38 14-14 30-26 48-35 3-1 6-2 10-1 3 1 6 3 9 5l11 12c3 2 6 4 9 5 3 1 6 1 9 0l48-14c3 0 6-2 8-4 2-2 3-4 4-7 1-2 2-5 1-8 0-3-1-6-2-8z" horiz-adv-x="1000" />

<glyph glyph-name="vk" unicode="&#xe83e;" d="M481 131h39c0 0 12 1 18 8 6 6 6 17 6 17 0 0-1 52 23 60 24 8 55-51 88-73 25-17 44-13 44-13l88 1c0 0 45 3 24 39-2 3-13 26-66 75-55 51-47 43 19 131 40 54 57 87 51 101-4 13-34 10-34 10l-99-1c0 0-7 1-12-2-6-3-9-11-9-11 0 0-16-41-37-77-44-74-61-78-68-74-17 11-13 44-13 67 0 72 11 102-21 110-11 3-19 4-46 5-36 0-65 0-82-9-11-5-20-17-15-18 7-1 21-4 29-15 10-14 10-45 10-45 0 0 6-85-14-95-13-7-31 7-70 75-20 35-36 73-36 73 0 0-2 7-8 11-6 5-15 6-15 6l-94 0c0 0-14-1-19-7-5-5 0-17 0-17 0 0 73-171 156-258 77-79 163-74 163-74z" horiz-adv-x="1000" />

<glyph glyph-name="telegram" unicode="&#xe83f;" d="M687 536l-9-3-449-156c-3 0-6-2-7-5-2-3-3-6-3-9 0-3 1-6 3-9 3-2 5-4 9-5l116-30 22-61 21-62c2-3 4-5 6-7 3-3 6-4 9-5 3 0 7 0 10 1 3 0 6 2 9 4l60 55 118-77c14-10 35-3 38 13l78 332c4 17-14 30-31 24z m-58-74l-203-159-9-8c-2-1-4-4-4-6l-2-17-6-48c0-1 0-1 0-2-1 0-1 0-2 0-1 0-1 0-2 0 0 1 0 1 0 2l-17 47-17 49c-1 2-1 5 0 7 1 2 3 4 5 5l211 116 40 22c6 3 11-4 6-8z" horiz-adv-x="1000" />

<glyph glyph-name="circle-check" unicode="&#xe851;" d="M509 800c-248 0-450-201-450-450 0-248 202-450 450-450 249 0 450 202 450 450 0 249-201 450-450 450z m-374-450c0 207 168 374 374 374 207 0 375-167 375-374 0-207-168-374-375-374-206 0-374 167-374 374z m536 123c-16 12-40 9-53-7l-151-196-68 73c-15 15-39 16-54 1-15-14-16-38-2-54l71-74c6-7 12-14 19-19 8-6 21-14 38-14 18 1 30 11 37 18 6 6 12 13 17 20l153 198c13 17 10 41-7 54z" horiz-adv-x="1019" />
</font>
</defs>
</svg>
